<?xml version="1.0" standalone="no"?>
<!DOCTYPE svg PUBLIC "-//W3C//DTD SVG 1.1//EN" "http://www.w3.org/Graphics/SVG/1.1/DTD/svg11.dtd">
<svg xmlns="http://www.w3.org/2000/svg">
<metadata>Generated by Fontastic.me</metadata>
<defs>
<font id="apex-5-icon-font" horiz-adv-x="512">
<font-face font-family="apex-5-icon-font" units-per-em="512" ascent="480" descent="-32"/>
<missing-glyph horiz-adv-x="512" />

<glyph unicode="&#57344;" d="m256 160l-128 192l256 0z"/>
<glyph unicode="&#57346;" d="m128 256l192 128l0-256z"/>
<glyph unicode="&#57347;" d="m0 512l160 0l-160-160z"/>
<glyph unicode="&#57348;" d="m282 302l70-46l-192-128l0 256c0 0 82-54 122-82z"/>
<glyph unicode="&#57349;" d="m256 352l128-192l-256 0z"/>
<glyph unicode="&#57350;" d="m256 480c-124 0-224-100-224-224c0-124 100-224 224-224c124 0 224 100 224 224c0 124-100 224-224 224z m0-416c-106 0-192 86-192 192c0 106 86 192 192 192c106 0 192-86 192-192c0-106-86-192-192-192z m128 192c0-71-57-128-128-128c-71 0-128 57-128 128c0 71 57 128 128 128c71 0 128-57 128-128z"/>
<glyph unicode="&#57351;" d="m448 362c-9-3-122-83-233-266c-14 13-151 130-151 130l0 26c0 0 31 29 37 32c8-4 91-66 91-66c0 0 116 145 244 198c0 0 7-23 12-27c-2-1 0-7 0-27"/>
<glyph unicode="&#57352;" d="m64 480l384 0c18 0 32-14 32-32c0-18-14-32-32-32l-384 0c-18 0-32 14-32 32c0 18 14 32 32 32z m0-96l384 0c18 0 32-14 32-32c0-18-14-32-32-32l-384 0c-18 0-32 14-32 32c0 18 14 32 32 32z m0-96l384 0c18 0 32-14 32-32c0-18-14-32-32-32l-384 0c-18 0-32 14-32 32c0 18 14 32 32 32z m0-96l384 0c18 0 32-14 32-32c0-18-14-32-32-32l-384 0c-18 0-32 14-32 32c0 18 14 32 32 32z m0-96l384 0c18 0 32-14 32-32c0-18-14-32-32-32l-384 0c-18 0-32 14-32 32c0 18 14 32 32 32z"/>
<glyph unicode="&#57353;" d="m64 480l384 0c18 0 32-14 32-32l0-64c0-18-14-32-32-32l-384 0c-18 0-32 14-32 32l0 64c0 18 14 32 32 32z m0-160l384 0c18 0 32-14 32-32l0-64c0-18-14-32-32-32l-384 0c-18 0-32 14-32 32l0 64c0 18 14 32 32 32z m0-160l384 0c18 0 32-14 32-32l0-64c0-18-14-32-32-32l-384 0c-18 0-32 14-32 32l0 64c0 18 14 32 32 32z"/>
<glyph unicode="&#57356;" d="m416 448l-320 0c-35 0-64-29-64-64l0-256c0-35 29-64 64-64l320 0c35 0 64 29 64 64l0 256c0 35-29 64-64 64z m32-320c0-19-13-32-32-32l-320 0c-16 0-32 13-32 32l0 192l384 0z"/>
<glyph unicode="&#57358;" d="m416 128l-320 0c-35 0-64 29-64 64l0 128c0 35 29 64 64 64l320 0c35 0 64-29 64-64l0-128c0-35-29-64-64-64z m-256 131c0 3-3 7-6 10c-4 6-7 6-10 9c-3 0-6 4-10 4c-6 0-12-4-19-10l0 32l-13 0l0-93l10 0l0 10c3-7 10-10 19-10c7 0 16 3 19 10c10 6 10 13 10 25c0 7 0 10 0 13z m61 19l-10 0l0-35c0-6 0-9-3-13c0-3-3-6-6-6c-4-3-7-3-10-3c-3 0-6 0-6 3c-4 0-7 3-7 6c0 4 0 7 0 13l0 35l-13 0l0-41c0-3 0-10 0-10c0-3 4-6 4-9c3-4 3-4 6-7c3 0 6-3 10-3c9 0 16 3 22 13l0-10l10 0l0 67z m35-9l0 9l-10 0l0 23l-12-7l0-16l-7 0l0-9l10 0l0-39c0-6 0-9 0-12c0-4 3-4 3-7c3 0 6-3 10-3c3 0 6 0 9 0l-3 16c-3 0-3 0-6 0c-4 0-4 0-4 0c0 0 0 0-3 3c0 0 0 3 0 7l0 35z m32-45c-3 0-3 0-6 0c-4 0-4 0-4 0c0 0 0 0-3 3c0 0 0 3 0 7l0 35l13 0l0 9l-10 0l0 23l-12-7l0-16l-7 0l0-9l10 0l0-39c0-6 0-9 0-12c0-4 3-4 3-7c3 0 6-3 10-3c3 0 6 0 9 0z m58 48c-7 6-13 10-23 10c-9 0-16-4-22-7c-7-9-10-16-10-29c0-12 3-19 10-25c6-7 13-10 22-10c7 0 10 0 16 3c7 4 10 7 10 13c3 7 3 13 3 19c3 10 0 20-6 26z m67-19c0 6 0 9 0 9c0 4-3 7-3 10c-4 3-4 3-7 6c-3 0-6 4-9 4c-10 0-16-4-23-10l0 6l-9 0l0-67l12 0l0 39c0 9 4 12 7 16c3 3 6 3 13 3c3 0 6 0 6-3c3 0 3-4 3-7c0-3 0-6 0-9l0-42l13 0l0 45z m-90-32c-6 0-9 3-13 6c-6 3-6 10-6 19c0 10 3 16 6 20c4 3 10 6 13 6c7 0 10-3 13-6c3-4 6-10 6-20c0-9-3-16-6-19c-3-6-6-6-13-6z m-192 0c-6 0-9 3-13 6c-3 7-3 10-3 19c0 10 3 13 7 20c0 3 6 6 9 6c7 0 10-3 13-6c3-4 6-10 6-20c0-9-3-16-6-19c-3-6-6-6-13-6z"/>
<glyph unicode="&#57354;" d="m160 160l-64 0c-19 0-32 13-32 32l0 128c0 19 13 32 32 32l64 0l0 32l-64 0c-35 0-64-29-64-64l0-128c0-35 29-64 64-64l64 0z m256 224l-160 0l0-32l160 0c19 0 32-13 32-32l0-128c0-19-13-32-32-32l-160 0l0-32l160 0c35 0 64 29 64 64l0 128c0 35-29 64-64 64z m-192-256c0 32 0 256 0 256c0 32 32 32 32 32c0 0 19 0 32 0l0 32c0 0-16 0-48 0c-32 0-32-16-32-16c0 0 0 16-32 16c-32 0-48 0-48 0l0-32l32 0c0 0 32 0 32-32c0-32 0-256 0-256c0-32-32-32-32-32l-32 0l0-32c0 0 16 0 48 0c32 0 32 16 32 16c0 0 0-16 32-16c32 0 48 0 48 0l0 32c-13 0-32 0-32 0c0 0-32 0-32 32z"/>
<glyph unicode="&#57360;" d="m413 99c-87-86-231-86-317 0c-86 87-86 231 0 317c86 86 230 86 317 0c89-90 89-230 0-317z m-39 231c10 9 10 25 0 35l-12 13c-10 9-26 9-36 0l-70-77l-74 73c-9 10-25 10-35 0l-9-9c-10-10-10-26 0-35l73-74l-73-74c-10-9-10-25 0-35l12-13c10-9 26-9 36 0l70 77l74-73c9-10 25-10 35 0l13 12c9 10 9 26 0 36l-77 70z"/>
<glyph unicode="&#57361;" d="m448 32l-384 0c-19 0-32 13-32 32l0 320c0 19 13 32 32 32l32 0l0 32c0 19 13 32 32 32l32 0c19 0 32-13 32-32l0-32l128 0l0 32c0 19 13 32 32 32l32 0c19 0 32-13 32-32l0-32l32 0c19 0 32-13 32-32l0-320c0-19-13-32-32-32z m-288 400c0 10-6 16-16 16c-10 0-16-6-16-16l0-64c0-10 6-16 16-16c10 0 16 6 16 16z m224 0c0 10-6 16-16 16c-10 0-16-6-16-16l0-64c0-10 6-16 16-16c10 0 16 6 16 16z m64-112l-384 0l0-256l384 0z"/>
<glyph unicode="&#57362;" d="m278 342l132-131c12-13 12-32 0-45c-13-12-32-12-45 0l-109 112l-109-108c-13-13-32-13-45 0c-12 12-12 32 0 44l132 132c12 9 32 9 44-4z"/>
<glyph unicode="&#57363;" d="m170 278l131 132c13 12 32 12 45 0c12-13 12-32 0-45l-112-109l108-109c13-13 13-32 0-45c-12-12-32-12-44 0l-128 132c-13 12-13 32 0 44z"/>
<glyph unicode="&#57364;" d="m448 256l0-224l-128 0l0 144c0 10-6 16-16 16l-64 0c-10 0-16-6-16-16l0-144l-128 0l0 224l-64 0l240 224l240-224z"/>
<glyph unicode="&#57365;" d="m234 170l-128 131c-13 13-13 32 0 45c12 12 32 12 44 0l106-112l109 108c13 13 32 13 45 0c12-12 12-32 0-44l-132-132c-12-9-32-9-44 4z"/>
<glyph unicode="&#57366;" d="m342 234l-131-132c-13-12-32-12-45 0c-12 13-12 32 0 45l112 109l-108 109c-13 13-13 32 0 45c12 12 32 12 44 0l132-132c9-12 9-32-4-44z"/>
<glyph unicode="&#57367;" d="m32 64l224 384l224-384z m256 240c0 10-6 16-16 16l-32 0c-10 0-16-6-16-16l0-96c0-10 6-16 16-16l32 0c10 0 16 6 16 16z m-16-144l-32 0c-10 0-16-6-16-16l0-32c0-10 6-16 16-16l32 0c10 0 16 6 16 16l0 32c0 10-6 16-16 16z"/>
<glyph unicode="&#57355;" d="m477 288c0-10 3-22 3-32c0-10-3-22-3-32l-64 0c-3-19-13-38-23-58l45-44c-13-16-29-32-45-45l-44 45c-16-10-36-20-58-23l0-64c-10 0-22-3-32-3c-10 0-22 3-32 3l0 64c-19 3-38 13-58 23l-44-45c-16 13-32 29-45 45l45 44c-10 20-20 39-23 58l-64 0c0 10-3 22-3 32c0 10 3 22 3 32l64 0c3 19 13 38 23 58l-45 44c13 16 29 32 45 45l44-45c20 10 39 20 58 23l0 64c10 0 22 3 32 3c10 0 22-3 32-3l0-64c19-3 38-13 58-23l44 45c16-13 32-29 45-45l-45-44c10-16 20-36 23-58z m-221 64c-54 0-96-42-96-96c0-54 42-96 96-96c54 0 96 42 96 96c0 54-42 96-96 96z"/>
<glyph unicode="&#57359;" d="m410 362l-71-71c-13-13-32-13-45 0c-12 13-12 32 0 45l71 70l-74 74l141 0c26 0 48-22 48-48l0-141z m-260-256l74-74l-144 0c-26 0-48 22-48 48l0 144l74-74l67 68c13 12 32 12 45 0c12-13 12-32 0-45z"/>
<glyph unicode="&#57345;" d="m477 288c3-10 3-22 3-32c0-10 0-22-3-32l-64-13c-3-13-7-22-13-32l35-54c-13-16-29-32-45-45l-54 35c-10-6-22-9-32-13l-13-64c-13-6-25-6-35-6c-10 0-22 0-32 3l-13 64c-13 3-22 7-32 13l-54-35c-16 13-32 29-45 45l35 54c-6 10-9 22-13 32l-67 16c-3 10-3 22-3 32c0 10 0 22 3 32l64 13c3 13 7 22 13 32l-35 57c13 16 29 32 45 45l54-35c10 6 22 10 32 13l13 64c13 3 25 3 35 3c10 0 22 0 32-3l13-64c13-3 22-7 32-13l54 35c16-13 32-29 45-45l-35-54c6-10 9-22 13-32z m-221 38c-38 0-70-32-70-70c0-38 32-70 70-70c38 0 70 32 70 70c0 38-32 70-70 70z"/>
<glyph unicode="&#57368;" d="m352 32l0 448l128 0l0-448z m-160 448l128 0l0-448l-128 0z m-160 0l128 0l0-448l-128 0z"/>
<glyph unicode="&#57369;" d="m416 0l-96 0c-19 0-32 13-32 32l0 32c0 19 13 32 32 32l96 0c19 0 32-13 32-32l0-32c0-19-13-32-32-32z m0 128l-96 0c-19 0-32 13-32 32l0 32c0 19 13 32 32 32l96 0c19 0 32-13 32-32l0-32c0-19-13-32-32-32z m0 128l-96 0c-19 0-32 13-32 32l0 32c0 19 13 32 32 32l96 0c19 0 32-13 32-32l0-32c0-19-13-32-32-32z m-288-160l0 288l32 0l0-64l80 0c10 0 16-6 16-16c0-10-6-16-16-16l-80 0l0-96l80 0c10 0 16-6 16-16c0-10-6-16-16-16l-80 0l0-64c0-19 13-32 32-32l64 0l0-32l-64 0c-35 0-64 29-64 64z m64 320l-96 0c-19 0-32 13-32 32l0 32c0 19 13 32 32 32l96 0c19 0 32-13 32-32l0-32c0-19-13-32-32-32z"/>
<glyph unicode="&#57370;" d="m448 64l-32 0c-19 0-32 13-32 32l0 32c0 19 13 32 32 32l32 0c19 0 32-13 32-32l0-32c0-19-13-32-32-32z m-32 128l0 32c0 19-13 32-32 32l-128 0l0-64l-32 0l0 64l-128 0c-19 0-32-13-32-32l0-32l-32 0l0 32c0 35 29 64 64 64l128 0l0 32l32 0l0-32l128 0c35 0 64-29 64-64l0-32z m-128 160l-96 0c-19 0-32 13-32 32l0 32c0 19 13 32 32 32l96 0c19 0 32-13 32-32l0-32c0-19-13-32-32-32z m-224-192c19 0 32-13 32-32l0-32c0-19-13-32-32-32l-32 0c-19 0-32 13-32 32l0 32c0 19 13 32 32 32z m160 0l32 0c19 0 32-13 32-32l0-32c0-19-13-32-32-32l-32 0c-19 0-32 13-32 32l0 32c0 19 13 32 32 32z"/>
<glyph unicode="&#57371;" d="m256 32c-48 0-90 16-128 38l48 48c22-12 51-22 80-22c90 0 160 70 160 160c0 90-70 160-160 160c-48 0-93-22-122-58l58-70l-160 0l0 192l61-70c41 41 99 70 163 70c125 0 224-99 224-224c0-125-99-224-224-224z"/>
<glyph unicode="&#57372;" d="m384 32l0 352l96 0l0-352z m0 448l96 0l0-64l-96 0z m-224 0l192 0l0-64l-192 0z m-128-96l96 0l0-352l-96 0z m0 96l96 0l0-64l-96 0z m320-352l0-96l-192 0l0 96z"/>
<glyph unicode="&#57374;" d="m410 93l70-61l-192 0l0 160l70-58c36 29 58 74 58 122c0 83-61 147-141 157l10 64c109-13 195-106 195-221c0-64-29-122-70-163z m-314 163c0-83 61-150 141-157l-10-64c-109 13-195 106-195 221c0 64 29 122 70 163l-70 61l192 0l0-160l-70 58c-36-29-58-74-58-122z"/>
<glyph unicode="&#57375;" d="m416 320l-320 0c-19 0-32-13-32-32l-32 0c0 35 29 64 64 64l320 0c35 0 64-29 64-64l-32 0c0 19-13 32-32 32z m-128 96c0-16-13-32-32-32c-19 0-32 16-32 32l-74 0l58 54l13 10l22 22c7 7 16 7 23 0l25-22l71-64z m-192-224l320 0c19 0 32 13 32 32l32 0c0-35-29-64-64-64l-320 0c-35 0-64 29-64 64l32 0c0-19 13-32 32-32z m128-96c0 16 13 32 32 32c19 0 32-13 32-32l74 0l-71-64l-22-22c-7-7-16-7-23 0l-25 22l-13 10l-58 54z"/>
<glyph unicode="&#57376;" d="m448 224l-384 0c-19 0-32 13-32 32c0 19 13 32 32 32l384 0c19 0 32-13 32-32c0-19-13-32-32-32z m-157 128l-22-22c-7-7-16-7-23 0l-25 22l-13 10l-58 54l74 0c0 0 0 3 0 3l0 29c0 19 13 32 32 32c19 0 32-13 32-32l0-32l74 0z m-70-192l22 22c7 7 16 7 23 0l25-22l71-64l-74 0l0-32c0-19-13-32-32-32c-19 0-32 13-32 32l0 29c0 0 0 3 0 3l-74 0l58 54z"/>
<glyph unicode="&#57377;" d="m448 301l-99-99c-42-42-109-42-147 0c-7 3-10 6-13 12l38 39c3-7 7-10 10-16c19-19 54-19 73 0l100 99c19 19 19 54 0 74c-20 19-55 19-74 0l-42-39c-19 10-41 13-64 7l71 70c41 42 109 42 150 0c39-42 39-106-3-147z m-134 13c3-4 6-10 12-13l-41-42c-3 7-7 13-10 16c-19 19-54 19-73 0l-100-99c-19-19-19-54 0-74c20-19 55-19 74 0l42 42c22-10 44-13 67-10l-74-70c-41-42-109-42-150 0c-42 42-42 109 0 150l99 100c45 38 112 38 154 0z"/>
<glyph unicode="&#57373;" d="m32 256c0 125 99 224 224 224c64 0 122-29 163-70l61 70l0-192l-160 0l58 70c-29 36-74 58-122 58c-90 0-160-70-160-160c0-90 70-160 160-160c29 0 58 10 80 22l48-48c-38-22-80-38-128-38c-125 0-224 99-224 224z"/>
<glyph unicode="&#57378;" d="m470 42c-12-13-32-13-44 0l-119 118c-29-19-61-32-99-32c-96 0-176 80-176 176c0 96 80 176 176 176c96 0 176-80 176-176c0-35-13-70-32-99l115-115c16-13 16-36 3-48z m-262 374c-61 0-112-51-112-112c0-61 51-112 112-112c61 0 112 51 112 112c0 61-51 112-112 112z"/>
<glyph unicode="&#57379;" d="m464 96l-416 0c-26 0-48 22-48 48l0 224c0 26 22 48 48 48l416 0c26 0 48-22 48-48l0-224c0-26-22-48-48-48z m-314 192l-57 64l-29-32l58-64l-58-64l29-32l57 64l29 32z m138-102l-96 0l0-26l96 0z"/>
<glyph unicode="&#57380;" d="m182 259l7-6l70 67l-6 10c13 38 6 86-26 118c-29 29-70 38-109 29l0-16l74-71c0 0 6-35-10-54c0 0-3 0-3-3c0 0-3-3-3-3c-16-16-54-10-54-10l-71 74l-16 0c-9-39 0-80 29-109c32-32 80-42 118-26z m317-176l-176 176l-67-67l176-176c19-19 48-19 67 0c16 16 16 48 0 67z m-13-57c-12-13-32-13-44 0c-13 12-13 32 0 44c12 13 32 13 44 0c13-12 13-32 0-44z m-281 160l169 166l45 3l29 93l-90-29l-6-45l-115-115l-51-54l-13 13c-3 3-13 3-19 0l-20-23l-128-128c-6-6-6-16 0-22l42-42c6-6 16-6 22 0l128 128l20 19c3 4 3 7 3 10c0 3 0 6-3 10z"/>
<glyph unicode="&#57381;" d="m445 416l-32 0c0-19-13-32-32-32l-29 0c-13 0-26 10-29 26l-32 0l0-26l-35 0l0 96l35 0l0-26l32 0c3 16 16 26 29 26l74 0c64 0 86-96 86-96c0 0-6 32-67 32z m-58-48l0-176c16-3 29-16 29-32l0-128c0-19-13-32-32-32l-32 0c-19 0-32 13-32 32l0 128c0 16 13 29 29 32l0 176c0 10 9 16 19 16c10 0 19-6 19-16z m-227-86l0-234c0-26-22-48-48-48c-26 0-48 22-48 48l0 234c-38 16-64 57-64 102c0 42 22 77 54 96l10-13l0-102c0 0 22-29 45-32c0 0 3 0 3 0c0 0 3 0 3 0c23 3 45 32 45 32l0 102l10 13c32-19 54-54 54-96c0-45-26-86-64-102z m-48-202c-16 0-32-13-32-32c0-19 13-32 32-32c16 0 32 13 32 32c0 19-13 32-32 32z"/>
<glyph unicode="&#57382;" d="m464 96l-35 0l-23 32l58 0c10 0 16 6 16 16l0 176l-208 0l-58 96l250 0c26 0 48-22 48-48l0-224c0-26-22-48-48-48z m-368-64l0 480l320-480z m64 64l141 0l-141 234z m-160 48l0 224c0 26 22 48 48 48l16 0l0-96l-32 0l0-176c0-10 6-16 16-16l16 0l0-32l-16 0c-26 0-48 22-48 48z"/>
<glyph unicode="&#57383;" d="m461 288c0 0-10-38-13-42c-3-3-10-6-10-6l4-16l6 0c0 0 10-10 13-16c3 0 29-10 51-19l0-61l-74 0l0 29c0 6 0 9 0 16c0 9-35 29-64 38c4 7 10 13 10 13l6 0l4 13c0 0-7 6-10 6c-3 3-13 45-13 45c0 0-3 0-3 3c-3 0-6 13-3 23c3 6 6 6 6 6c0 0 0 13 0 26c-3 12 13 38 45 38c32 0 48-26 48-42c0-12 0-25 0-25c0 0 3 0 6-7c4-9-3-19-3-22c-3 0-6 0-6 0z m-147 6c0 0-13-48-16-51c-4-3-10-13-10-13l0-16l6 0c0 0 13-12 16-19c10 0 106-35 106-48c0-3 0-13 0-22l0-10c0-9-10-19-19-19l-282 0c-9 0-19 10-19 19l0 10c0 6 0 16 0 22c0 13 96 48 106 48c3 10 16 19 16 19l6 0l0 16c0 0-6 7-10 10c-3 6-16 54-16 54c0 0 0 4-3 4c-3 3-9 16-6 28c3 7 9 7 9 7c0 0 0 16 0 32c0 19 20 51 58 51c38 0 58-32 58-51c0-16 0-32 0-32c0 0 6 0 9-7c3-9-3-25-6-28c-3 0-3-4-3-4z m-173-6c0 0-10-38-13-42c-3-3-10-9-10-9l4-13l6 0c0 0 6-6 10-13c-29-13-64-29-64-38c0-3 0-7 0-16l0-29l-74 0l0 61c22 9 48 19 51 19c3 6 13 16 13 16l6 0l4 13c0 0-7 6-10 6c-3 3-13 45-13 45c0 0-3 0-3 3c-3 0-6 13-3 23c3 6 6 6 6 6c0 0 0 13 0 26c-3 12 13 38 45 38c32 0 45-26 45-42c0-12 0-25 0-25c0 0 3 0 6-7c3-9-3-19-3-22c-3 0-3 0-3 0z"/>
<glyph unicode="&#57384;" d="m448 96l-384 0c-19 0-32 13-32 32l0 256c0 19 13 32 32 32l384 0c19 0 32-13 32-32l0-256c0-19-13-32-32-32z m-384 42l10-10l86 86l-10 10z m362 246l-170-166l-170 166l-22-26l166-160l26-25l26 25l166 160z m-64-160l-10-10l86-86l10 10z"/>
<glyph unicode="&#57385;" d="m480 74l0-13c0-16-13-29-29-29l-390 0c-16 0-29 13-29 29l0 13c0 9 0 22 0 28c0 20 134 71 147 71c7 13 23 29 23 29l9 0l3 22c0 0-9 10-12 13c-10 3-26 73-26 73c0 0-3 4-6 4c-4 3-13 25-7 38c3 10 13 10 13 10c0 0 0 22 0 44c-3 29 26 74 80 74c54 0 83-45 83-74c0-22 0-44 0-44c0 0 7 0 13-10c3-16-3-35-6-38c-4-4-7-7-7-7c0 0-19-67-25-70c-4-7-13-16-13-16l3-23l10 0c0 0 16-16 22-28c13 0 147-52 147-71c-3-3-3-16-3-25z"/>
<glyph unicode="&#57388;" d="m192 67c0 29 0 58 0 87l3 3c99-45 215-45 317 3c0-32 0-61 0-93c-102-48-218-48-320 0z m32 115l64 58l-29 26c83-23 173-13 253 22c0-32 0-61 0-93c-90-41-195-45-288-13z m-22 138l-10 6c0 16 0 36 0 55c0 6 0 13 0 22c0 3 0 10 0 13c102 45 218 45 320 0c0-3 0-10 0-13c0-6 0-13 0-22c0-19 0-39 0-58c-99-45-211-45-310-3z m22-80l-160-144l0 96l-64 0l0 96l64 0l0 96z"/>
<glyph unicode="&#57391;" d="m480 0l-320 0c-19 0-32 13-32 32l0 224c0 19 13 32 32 32l32 0l0 96c0 35-29 64-64 64c-35 0-64-29-64-64l0-80c0-10-6-16-16-16l-32 0c-10 0-16 6-16 16l0 80c0 70 58 128 128 128c70 0 128-58 128-128l0-96l224 0c19 0 32-13 32-32l0-224c0-19-13-32-32-32z m-160 160c-19 0-32-13-32-32c0-13 6-22 16-26l0-38c0-10 6-16 16-16c10 0 16 6 16 16l0 38c10 7 16 16 16 26c0 19-13 32-32 32z"/>
<glyph unicode="&#57392;" d="m256 0c-141 0-256 115-256 256c0 141 115 256 256 256c141 0 256-115 256-256c0-141-115-256-256-256z m160 288l-128 0l0 128c0 19-13 32-32 32c-19 0-32-13-32-32l0-128l-128 0c-19 0-32-13-32-32c0-19 13-32 32-32l128 0l0-128c0-19 13-32 32-32c19 0 32 13 32 32l0 128l128 0c19 0 32 13 32 32c0 19-13 32-32 32z"/>
<glyph unicode="&#57393;" d="m416 0l-320 0c-19 0-32 13-32 32l0 224c0 19 13 32 32 32l32 0l0 96c0 70 58 128 128 128c70 0 128-58 128-128l0-96l32 0c19 0 32-13 32-32l0-224c0-19-13-32-32-32z m-176 102l0-38c0-10 6-16 16-16c10 0 16 6 16 16l0 38c10 4 16 13 16 26c0 19-13 32-32 32c-19 0-32-13-32-32c0-13 6-22 16-26z m80 282c0 35-29 64-64 64c-35 0-64-29-64-64l0-96l128 0z"/>
<glyph unicode="&#57395;" d="m192 67c0 32 0 61 0 93c102-45 218-45 320 0c0-32 0-61 0-93c-102-48-218-48-320 0z m0 128c0 32 0 61 0 93c102-45 218-45 320 0c0-32 0-61 0-93c-102-48-218-48-320 0z m0 128c0 19 0 39 0 58c0 6 0 13 0 22c0 3 0 10 0 13c102 45 218 45 320 0c0-3 0-10 0-13c0-6 0-13 0-22c0-19 0-39 0-58c-102-48-218-48-320 0z m-192 32l128-115l-128-115z"/>
<glyph unicode="&#57396;" d="m256 0c-141 0-256 115-256 256c0 141 115 256 256 256c141 0 256-115 256-256c0-141-115-256-256-256z m-96 410l0-308l256 154z"/>
<glyph unicode="&#57397;" d="m512 61l0-10c0-9-10-19-19-19l-282 0c-9 0-19 10-19 19l0 10c0 6 0 16 0 22c0 13 96 48 106 48c3 10 16 19 16 19l6 0l3 16c0 0-6 7-9 10c-4 3-16 51-16 51c0 0-4 7-7 7c-3 3-9 16-6 28c3 7 9 7 9 7c0 0 0 16 0 32c0 19 20 51 58 51c38 0 58-32 58-51c0-16 0-32 0-32c0 0 6 0 9-7c3-9-3-25-6-28c-3 0-3-4-3-4c0 0-13-48-16-51c-4-3-10-9-10-9l3-16l7 0c0 0 12-13 16-20c9 0 105-35 105-48c-3-6-3-16-3-25z m-288 99l-192 0c-19 0-32 13-32 32l0 128c0 19 13 32 32 32l32 0l0 64c0 35 29 64 64 64c35 0 64-29 64-64l0-64l32 0c19 0 32-13 32-32l0-128c0-19-13-32-32-32z m-64 256c0 19-13 32-32 32c-19 0-32-13-32-32l0-64l64 0z m-32-128c-19 0-32-13-32-32c0-13 6-22 16-26l0-38c0-10 6-16 16-16c10 0 16 6 16 16l0 38c10 4 16 13 16 26c0 19-13 32-32 32z"/>
<glyph unicode="&#57398;" d="m432 128l-48 0l0-96l-128 96l-176 0c-26 0-48 22-48 48l0 224c0 26 22 48 48 48l352 0c26 0 48-22 48-48l0-224c0-26-22-48-48-48z"/>
<glyph unicode="&#57399;" d="m480 192l-160 0l0-160c0-19-13-32-32-32l-64 0c-19 0-32 13-32 32l0 160l-160 0c-19 0-32 13-32 32l0 64c0 19 13 32 32 32l160 0l0 160c0 19 13 32 32 32l64 0c19 0 32-13 32-32l0-160l160 0c19 0 32-13 32-32l0-64c0-19-13-32-32-32z"/>
<glyph unicode="&#57386;" d="m464 32l-416 0c-27 0-48 21-48 48l0 352c0 27 21 48 48 48l416 0c27 0 48-21 48-48l0-352c0-27-21-48-48-48z m32 192l0 176l-480 0l0-320c0-18 14-32 32-32l416 0c18 0 32 14 32 32z m-58 0l0-5l-6 0l-3-3l0-6l-8 0l-2-2l0-6l-8 0l-1-2l0-8l-10 0l0 18l27 22l-27 22l0 18l10 0l0-8l9 0l0-8l2-2l8 0l0-6l3-2l6 0l0-6l4-3l6 0l0-10l-5 0z m-86-16l-64 0c-10 0-16 6-16 16l0 16c0 10 6 16 16 16l64 0c10 0 16-6 16-16l0-16c0-10-6-16-16-16z m-122 16l0-5l-6 0l-3-3l0-6l-8 0l-2-2l0-6l-8 0l-1-2l0-8l-10 0l0 18l27 22l-27 22l0 18l10 0l0-8l9 0l0-8l2-2l8 0l0-6l3-2l6 0l0-6l4-3l6 0l0-10l-5 0z m-86-16l-64 0c-10 0-16 6-16 16l0 16c0 10 6 16 16 16l64 0c10 0 16-6 16-16l0-16c0-10-6-16-16-16z"/>
<glyph unicode="&#57389;" d="m464 32l-416 0c-27 0-48 21-48 48l0 352c0 27 21 48 48 48l416 0c27 0 48-21 48-48l0-352c0-27-21-48-48-48z m32 192l0 176l-480 0l0-320c0-18 14-32 32-32l416 0c18 0 32 14 32 32z m-112-112l-256 0c-10 0-16 6-16 16l0 192c0 10 6 16 16 16l16 0l0 16c0 10 6 16 16 16l16 0c10 0 16-6 16-16l0-16l128 0l0 16c0 10 6 16 16 16l16 0c10 0 16-6 16-16l0-16l16 0c10 0 16-6 16-16l0-192c0-10-6-16-16-16z m-208 232c0 5-3 8-8 8c-5 0-8-3-8-8l0-32c0-5 3-8 8-8c5 0 8 3 8 8z m176 0c0 5-3 8-8 8c-5 0-8-3-8-8l0-32c0-5 3-8 8-8c5 0 8 3 8 8z m32-56l-256 0l0-160l256 0z m-176-48l-64 0l0 32l64 0z m0-48l-64 0l0 32l64 0z m0-48l-64 0l0 32l64 0z m80 96l-64 0l0 32l64 0z m0-48l-64 0l0 32l64 0z m0-48l-64 0l0 32l64 0z m80 96l-64 0l0 32l64 0z m0-48l-64 0l0 32l64 0z"/>
<glyph unicode="&#57390;" d="m464 32l-416 0c-27 0-48 21-48 48l0 352c0 27 21 48 48 48l416 0c27 0 48-21 48-48l0-352c0-27-21-48-48-48z m32 192l0 176l-480 0l0-320c0-18 14-32 32-32l416 0c18 0 32 14 32 32z m-224 144c70 0 128-58 128-128l-128 0z m-16-272c-70 0-128 58-128 128c0 70 58 128 128 128l0-128l128 0c0-70-58-128-128-128z"/>
<glyph unicode="&#57401;" d="m464 32l-416 0c-27 0-48 21-48 48l0 352c0 27 21 48 48 48l416 0c27 0 48-21 48-48l0-352c0-27-21-48-48-48z m32 192l0 176l-480 0l0-320c0-18 14-32 32-32l416 0c18 0 32 14 32 32z m-72-144l-32 0c-5 0-8 3-8 8l0 144c0 5 3 8 8 8l32 0c5 0 8-3 8-8l0-144c0-5-3-8-8-8z m-16 198c-10 0-18 8-18 18c0 2 0 5 2 6l-50 31c-3-3-8-7-12-7c-7 0-12 4-15 7l-49-31c0-1 1-3 1-6c0-10-8-18-17-18c-5 0-10 2-13 5l-50-32c0-1 0-1 0-3c0-10-8-18-17-18c-10 0-18 8-18 18c0 3 2 5 2 8l-55 42c-3-2-6-4-9-4c-10 0-18 8-18 18c0 10 8 18 18 18c9 0 17-8 17-18c0-3-1-6-3-8l53-42c3 2 6 4 11 4c6 0 11-4 14-8l50 32c0 1-2 3-2 6c0 10 8 18 18 18c5 0 10-2 13-5l49 32c0 1 0 1 0 3c0 10 8 18 18 18c10 0 18-8 18-18c0-2 0-3-2-5l50-30c3 3 8 5 12 5c10 0 18-8 18-18c0-10-6-18-16-18z m-304-22c5 0 8-3 8-8l0-160c0-5-3-8-8-8l-32 0c-5 0-8 3-8 8l0 160c0 5 3 8 8 8z m48-64l32 0c5 0 8-3 8-8l0-96c0-5-3-8-8-8l-32 0c-5 0-8 3-8 8l0 96c0 5 3 8 8 8z m80 48l32 0c5 0 8-3 8-8l0-144c0-5-3-8-8-8l-32 0c-5 0-8 3-8 8l0 144c0 5 3 8 8 8z m80 48l32 0c5 0 8-3 8-8l0-192c0-5-3-8-8-8l-32 0c-5 0-8 3-8 8l0 192c0 5 3 8 8 8z"/>
<glyph unicode="&#57402;" d="m464 32l-416 0c-27 0-48 21-48 48l0 352c0 27 21 48 48 48l416 0c27 0 48-21 48-48l0-352c0-27-21-48-48-48z m32 192l0 176l-480 0l0-320c0-18 14-32 32-32l416 0c18 0 32 14 32 32z m-160-16l128 0l0-16l-128 0z m0 80l128 0l0-16l-128 0z m0 32l128 0l0-16l-128 0z m-160-224c-70 0-128 58-128 128c0 70 58 128 128 128c70 0 128-58 128-128c0-70-58-128-128-128z m-72 216c-26-21-42-53-42-88c0-35 16-67 42-88l27 34c-16 12-25 32-25 54c0 22 9 42 25 54z m72-30c-32 0-58-26-58-58c0-32 26-58 58-58c32 0 58 26 58 58c0 32-26 58-58 58z m72 30l-27-34c16-12 25-32 25-54c0-22-9-42-25-54l27-34c26 21 42 53 42 88c0 35-16 67-42 88z m168-72l-80 0l0 16l80 0z m-16-80l-64 0l0 16l64 0z"/>
<glyph unicode="&#57403;" d="m464 32l-416 0c-27 0-48 21-48 48l0 352c0 27 21 48 48 48l416 0c27 0 48-21 48-48l0-352c0-27-21-48-48-48z m32 192l0 176l-480 0l0-320c0-18 14-32 32-32l416 0c18 0 32 14 32 32z m-48 80l-384 0c-10 0-16 6-16 16l0 32c0 10 6 16 16 16l384 0c10 0 16-6 16-16l0-32c0-10-6-16-16-16z m-192 48l-192 0l0-32l192 0z m48 0l-32 0l0-32l32 0z m160-272l-416 0l0 208l416 0z m-288 192l-112 0l0-32l112 0z m0-48l-112 0l0-32l112 0z m0-48l-112 0l0-32l112 0z m0-48l-112 0l0-32l112 0z m144 144l-128 0l0-32l128 0z m0-48l-128 0l0-32l128 0z m0-48l-128 0l0-32l128 0z m0-48l-128 0l0-32l128 0z m128 144l-112 0l0-32l112 0z m0-48l-112 0l0-32l112 0z m0-48l-112 0l0-32l112 0z m0-48l-112 0l0-32l112 0z"/>
<glyph unicode="&#57404;" d="m464 480l-416 0c-27 0-48-21-48-48l0-352c0-27 21-48 48-48l416 0c27 0 48 21 48 48l0 352c0 27-21 48-48 48z m32-400c0-18-14-32-32-32l-416 0c-18 0-32 14-32 32l0 320l480 0z m-368 224l16 0c10 0 16 6 16 16l0 16c0 10-6 16-16 16l-16 0c-10 0-16-6-16-16l0-16c0-10 6-16 16-16z m64 0l192 0c10 0 16 6 16 16l0 16c0 10-6 16-16 16l-192 0c-10 0-16-6-16-16l0-16c0-10 6-16 16-16z m-64-64l16 0c10 0 16 6 16 16l0 16c0 10-6 16-16 16l-16 0c-10 0-16-6-16-16l0-16c0-10 6-16 16-16z m64 0l192 0c10 0 16 6 16 16l0 16c0 10-6 16-16 16l-192 0c-10 0-16-6-16-16l0-16c0-10 6-16 16-16z m-64-64l16 0c10 0 16 6 16 16l0 16c0 10-6 16-16 16l-16 0c-10 0-16-6-16-16l0-16c0-10 6-16 16-16z m64 0l192 0c10 0 16 6 16 16l0 16c0 10-6 16-16 16l-192 0c-10 0-16-6-16-16l0-16c0-10 6-16 16-16z m-64-64l16 0c10 0 16 6 16 16l0 16c0 10-6 16-16 16l-16 0c-10 0-16-6-16-16l0-16c0-10 6-16 16-16z m64 0l192 0c10 0 16 6 16 16l0 16c0 10-6 16-16 16l-192 0c-10 0-16-6-16-16l0-16c0-10 6-16 16-16z"/>
<glyph unicode="&#57405;" d="m464 32l-416 0c-27 0-48 21-48 48l0 352c0 27 21 48 48 48l416 0c27 0 48-21 48-48l0-352c0-27-21-48-48-48z m32 192l0 176l-480 0l0-320c0-18 14-32 32-32l416 0c18 0 32 14 32 32z m-162-22c-1-7-3-12-6-16l18-28c-7-8-15-16-23-22l-27 18c-5-4-11-5-16-7l-6-32c-5 0-12-1-16-1c-5 0-12 0-16 1l-7 32c-6 2-11 3-16 7l-27-18c-8 6-16 14-22 22l17 28c-3 4-5 11-6 16l-32 6c-5 5-5 11-5 16c0 5 0 11 2 16l32 6c1 7 3 12 6 16l-18 28c7 8 15 16 23 22l27-18c5 4 11 5 16 7l6 32c5 0 12 1 16 1c5 0 12 0 16-1l7-32c6-2 11-3 16-7l27 18c8-6 16-14 22-22l-17-28c3-4 5-11 6-16l32-6c0-5 2-11 2-16c0-5 0-11-2-16z m-78 56c-19 0-34-15-34-34c0-19 15-34 34-34c19 0 34 15 34 34c0 19-15 34-34 34z"/>
<glyph unicode="&#57406;" d="m400 240c10 0 16 6 16 16c0 10-6 16-16 16l-54 0c1-10 4-21 4-32z m16-48c0 10-6 16-16 16l-50 0c-1-11-3-22-4-32l54 0c10 0 16 6 16 16z m-304-48c10 0 16 6 16 16l0 16c0 18 14 32 32 32l32 0c0-45 35-64 80-64l48 0c0 0 16 34 16 82c0 48-16 78-16 78l-48 0c-45 0-80-19-80-64l-32 0c-35 0-64-29-64-64l0-16c0-10 6-16 16-16z m176 120c0 5 3 8 8 8c5 0 8-3 8-8l0-80c0-5-3-8-8-8c-5 0-8 3-8 8z m-32 0c0 5 3 8 8 8c5 0 8-3 8-8l0-80c0-5-3-8-8-8c-5 0-8 3-8 8z m208 216l-416 0c-27 0-48-21-48-48l0-352c0-27 21-48 48-48l416 0c27 0 48 21 48 48l0 352c0 27-21 48-48 48z m32-400c0-18-14-32-32-32l-416 0c-18 0-32 14-32 32l0 320l480 0z"/>
<glyph unicode="&#57407;" d="m464 32l-416 0c-27 0-48 21-48 48l0 352c0 27 21 48 48 48l416 0c27 0 48-21 48-48l0-352c0-27-21-48-48-48z m32 192l0 176l-480 0l0-320c0-18 14-32 32-32l416 0c18 0 32 14 32 32z m-112-64c-11 0-22 6-27 16l-5 0l0-56c0-13-11-24-24-24l-56 0l0 5c10 5 16 16 16 27c0 18-14 32-32 32c-18 0-32-14-32-32c0-11 6-22 16-27l0-5l-56 0c-13 0-24 11-24 24l0 144c0 13 11 24 24 24l56 0l0 5c-10 5-16 16-16 27c0 18 14 32 32 32c18 0 32-14 32-32c0-11-6-22-16-27l0-5l56 0c13 0 24-11 24-24l0-56l5 0c5 10 16 16 27 16c18 0 32-14 32-32c0-18-14-32-32-32z"/>
<glyph unicode="&#57408;" d="m464 32l-416 0c-27 0-48 21-48 48l0 352c0 27 21 48 48 48l416 0c27 0 48-21 48-48l0-352c0-27-21-48-48-48z m32 192l0 176l-480 0l0-320c0-18 14-32 32-32l416 0c18 0 32 14 32 32z m-48-144l-160 0c-10 0-16 6-16 16l0 160c0 10 6 16 16 16l160 0c10 0 16-6 16-16l0-160c0-10-6-16-16-16z m0 144l-160 0l0-128l160 0z m0 80l-384 0c-10 0-16 6-16 16l0 32c0 10 6 16 16 16l384 0c10 0 16-6 16-16l0-32c0-10-6-16-16-16z m-128 48l-128 0l0-32l128 0z m128 0l-112 0l0-32l112 0z m-384-80l160 0c10 0 16-6 16-16l0-160c0-10-6-16-16-16l-160 0c-10 0-16 6-16 16l0 160c0 10 6 16 16 16z m0-176l160 0l0 128l-160 0z"/>
<glyph unicode="&#57409;" d="m464 32l-416 0c-27 0-48 21-48 48l0 352c0 27 21 48 48 48l416 0c27 0 48-21 48-48l0-352c0-27-21-48-48-48z m32 192l0 176l-480 0l0-320c0-18 14-32 32-32l416 0c18 0 32 14 32 32z m-160-96l-288 0l0 240l416 0l0-240z m-160 192l-112 0l0-32l112 0z m0-48l-112 0l0-32l112 0z m0-48l-112 0l0-32l112 0z m0-48l-112 0l0-32l112 0z m144 144l-128 0l0-32l128 0z m0-48l-128 0l0-32l128 0z m0-48l-128 0l0-32l128 0z m0-48l-128 0l0-32l128 0z m128 144l-112 0l0-32l112 0z m0-48l-112 0l0-32l112 0z m0-48l-112 0l0-32l112 0z m0-48l-112 0l0-32l112 0z m-48-64l0-48l-32 24z m48-24l-32-24l0 48z"/>
<glyph unicode="&#57410;" d="m464 32l-416 0c-27 0-48 21-48 48l0 352c0 27 21 48 48 48l416 0c27 0 48-21 48-48l0-352c0-27-21-48-48-48z m32 192l0 176l-480 0l0-320c0-18 14-32 32-32l416 0c18 0 32 14 32 32z"/>
<glyph unicode="&#57411;" d="m464 32l-416 0c-27 0-48 21-48 48l0 352c0 27 21 48 48 48l416 0c27 0 48-21 48-48l0-352c0-27-21-48-48-48z m32 192l0 176l-480 0l0-320c0-18 14-32 32-32l416 0c18 0 32 14 32 32z m-160-128l-48 0c-10 0-16 6-16 16l0 16c0 10 6 16 16 16l48 0c10 0 16-6 16-16l0-16c0-10-6-16-16-16z m0 64l-48 0c-10 0-16 6-16 16l0 16c0 10 6 16 16 16l48 0c10 0 16-6 16-16l0-16c0-10-6-16-16-16z m0 64l-48 0c-10 0-16 6-16 16l0 16c0 10 6 16 16 16l48 0c10 0 16-6 16-16l0-16c0-10-6-16-16-16z m-144-80l0 144l16 0l0-32l40 0c5 0 8-3 8-8c0-5-3-8-8-8l-40 0l0-48l40 0c5 0 8-3 8-8c0-5-3-8-8-8l-40 0l0-32c0-10 6-16 16-16l32 0l0-16l-32 0c-18 0-32 14-32 32z m32 160l-48 0c-10 0-16 6-16 16l0 16c0 10 6 16 16 16l48 0c10 0 16-6 16-16l0-16c0-10-6-16-16-16z"/>
<glyph unicode="&#57400;" d="m448 112l-384 0c-27 0-48 21-48 48l0 16c0-27 21-48 48-48l384 0c27 0 48 21 48 48l0-16c0-27-21-48-48-48z m0 32l-384 0c-27 0-48 21-48 48l0 128c0 27 21 48 48 48l384 0c27 0 48-21 48-48l0-128c0-27-21-48-48-48z m16 176c0 10-6 16-16 16l-384 0c-10 0-16-6-16-16l0-128c0-10 6-16 16-16l384 0c10 0 16 6 16 16z m-32-128l-352 0c-10 0-16 6-16 16l0 96c0 10 6 16 16 16l352 0c10 0 16-6 16-16l0-96c0-10-6-16-16-16z"/>
<glyph unicode="&#57412;" d="m448 112l-384 0c-27 0-48 21-48 48l0 16c0-27 21-48 48-48l384 0c27 0 48 21 48 48l0-16c0-27-21-48-48-48z m0 32l-384 0c-27 0-48 21-48 48l0 128c0 27 21 48 48 48l384 0c27 0 48-21 48-48l0-128c0-27-21-48-48-48z m16 176c0 10-6 16-16 16l-384 0c-10 0-16-6-16-16l0-128c0-10 6-16 16-16l384 0c10 0 16 6 16 16z"/>
<glyph unicode="&#57413;" d="m464 128l-416 0c-26 0-48 22-48 48l0 160c0 26 22 48 48 48l416 0c26 0 48-22 48-48l0-160c0-26-22-48-48-48z m16 192c0 19-13 32-32 32l-384 0c-19 0-32-13-32-32l0-96c0-19 13-32 32-32l384 0c19 0 32 13 32 32z m-64-96l-320 0c-19 0-32 13-32 32l0 32c0 19 13 32 32 32l320 0c19 0 32-13 32-32l0-32c0-19-13-32-32-32z"/>
<glyph unicode="&#57414;" d="m458 384l-45-45l-71 71l42 48c13 12 32 16 42 6l35-35c9-13 9-32-3-45z m-304-298l-68 68l237 236l67-67z m-122-54l38 106l68-68z"/>
<glyph unicode="&#57415;" d="m499 429l-48-48l-73 73l48 48c12 13 32 16 41 7l35-35c13-13 10-32-3-45z m-278-275l-67 67l211 211l70-70z m-16-20l-109-38l38 109z m-125 250c-10 0-16-6-16-16l0-288c0-10 6-16 16-16l288 0c10 0 16 6 16 16l0 144l64 64l0-240c0-26-22-48-48-48l-352 0c-26 0-48 22-48 48l0 352c0 26 22 48 48 48l240 0l-64-64z"/>
<glyph unicode="&#57416;" d="m256 0l0 224l224 0l0-224z m0 480l128-224l-256 0z m-32-368c0-61-51-112-112-112c-61 0-112 51-112 112c0 61 51 112 112 112c61 0 112-51 112-112z"/>
<glyph unicode="&#57417;" d="m499 365l-48-48l-73 73l48 48c12 13 32 16 41 7l35-35c13-13 10-32-3-45z m-214-211l-67 67l147 147l70-70z m-16-20l-109-38l38 109z m19 218l0 96l-128 0l0-112c0-10-6-16-16-16l-112 0l0-256l256 0l0 32l32 32l0-80c0-10-6-16-16-16l-288 0c-10 0-16 6-16 16l0 307l125 125l179 0c10 0 16-6 16-16l0-80z"/>
<glyph unicode="&#57357;" d="m96 352l0-320l320 0l0 448l-192 0z m32-32l128 0l0 128l128 0l0-384l-256 0z"/>
<glyph unicode="&#57419;" d="m448 0l-384 0c-35 0-64 29-64 64l0 384c0 35 29 64 64 64l384 0c35 0 64-29 64-64l0-384c0-35-29-64-64-64z m-176 480l-224 0c-10 0-16-6-16-16c0-10 6-16 16-16l224 0c10 0 16 6 16 16c0 10-6 16-16 16z m64 0c-10 0-16-6-16-16c0-10 6-16 16-16c10 0 16 6 16 16c0 10-6 16-16 16z m-176-128l0-256l214 128z m240 128c-10 0-16-6-16-16c0-10 6-16 16-16c10 0 16 6 16 16c0 10-6 16-16 16z m64 0c-10 0-16-6-16-16c0-10 6-16 16-16c10 0 16 6 16 16c0 10-6 16-16 16z"/>
<glyph unicode="&#57387;" d="m432 192l-80 96l160 0z m-432-144l0 307l125 125l179 0c10 0 16-6 16-16l0-416c0-10-6-16-16-16l-288 0c-10 0-16 6-16 16z m32 16l256 0l0 384l-128 0l0-112c0-10-6-16-16-16l-112 0z"/>
<glyph unicode="&#57394;" d="m480 96l0 96l-96 0l0 96l96 0l0 96l32-29l0-230z m-480-48l0 307l125 125l179 0c10 0 16-6 16-16l0-416c0-10-6-16-16-16l-288 0c-10 0-16 6-16 16z m32 16l256 0l0 384l-128 0l0-112c0-10-6-16-16-16l-112 0z"/>
<glyph unicode="&#57418;" d="m432 224l-144 0l0-144c0-10-6-16-16-16l-32 0c-10 0-16 6-16 16l0 144l-144 0c-10 0-16 6-16 16l0 32c0 10 6 16 16 16l144 0l0 144c0 10 6 16 16 16l32 0c10 0 16-6 16-16l0-144l144 0c10 0 16-6 16-16l0-32c0-10-6-16-16-16z"/>
<glyph unicode="&#57421;" d="m432 96l-176 0l0 32l176 0c10 0 16 6 16 16l0 192c0 10-6 16-16 16l-288 0c-10 0-16-6-16-16l0-48l-32 0l0 112c0 26 22 48 48 48l288 0c26 0 48-22 48-48l0-256c0-26-22-48-48-48z m-272 160l48 0c10 0 16-6 16-16l0-173l-70 71l-71-71c-13-13-32-13-45 0c-12 13-12 32 0 45l71 70l-74 74z"/>
<glyph unicode="&#57420;" d="m311 190c0 0 18-15 22-28c8 0 55-19 94-38c-41-49-103-81-171-81c-68 0-130 32-171 81c39 19 86 38 94 38c4 11 22 28 22 28l8 0l2 21c0 0-10 11-15 13c-4 6-21 73-21 73c0 0 0 6-4 8c-2 2-11 24-7 38c5 9 11 9 11 9c0 0 0 23 0 45c0 28 28 70 81 72c53-2 81-44 81-72c0-22 0-45 0-45c0 0 9 0 11-9c4-14-5-36-9-38c-2-2-6-6-6-6c0 0-17-69-22-73c-4-4-14-13-14-13l2-21l12 0z"/>
<glyph unicode="&#57422;" d="m96 99c0 23 0 64 0 96c0 10 0 19 0 29c0 22 0 48 0 67c0 10 0 19 0 29c0 19 0 42 0 58c0 6 0 16 0 22c0 3 0 10 0 13c102 45 218 45 317 0c0-3 0-10 0-13c0-6 0-16 0-22c0-20 0-42 0-58c3 0 3 0 3 0c0-6 0-19 0-29c0-22 0-45 0-67c0-6 0-16 0-29c0-32 0-73 0-96c-102-48-218-48-320 0z m288 269c-80-22-176-22-256 0c0-16 0-48 0-64c80-22 176-22 256 0c0 16 0 51 0 64z m0-96c-26-6-51-13-77-13c-35-3-67-3-102 0c-26 3-51 7-77 13c0-16 0-48 0-64c80-22 176-22 256 0c0 16 0 51 0 64z m0-96c-26-6-51-13-77-13c-32-3-67-3-99 0c-26 3-54 7-77 13c0-16 0-48 0-64c80-22 176-22 256 0c-3 16-3 51-3 64z"/>
<glyph unicode="&#57423;" d="m256 32c-125 0-224 99-224 224c0 125 99 224 224 224c125 0 224-99 224-224c0-125-99-224-224-224z m-26 70l52 0l0 52l-52 0z m96 279c-19 16-44 22-73 22c-26 0-45-3-61-16c-26-16-38-41-38-80l51 0c0 10 3 23 9 32c7 10 26 16 42 16c16 0 26-3 32-13c6-9 10-19 10-28c0-10-4-16-10-26c-3-3-6-6-13-10l-13-12c-16-10-25-23-28-29c-4-10-4-32-4-58l52 0c0 10 0 23 0 26c3 9 9 19 19 25l13 13c16 13 25 19 28 29c10 13 13 26 13 45c3 29-6 51-29 64z"/>
</font>
</defs>
</svg>
